[Login] or [Signup]
Login
Username:
Password:
[Signup]
[Recover Account]


Poll


You must be logged in to view polls



Torrent Details For "Incredibles.2.2018.720p.HDRip-.DD5.1.H264-[SM Team]"

Incredibles.2.2018.720p.HDRip-.DD5.1.H264-[SM Team]

Download this torrent | Magnet Download
Health:
Seeds: 0
Leechers: 0
Completed:
Last Checked: 22-10-2018 20:48:31
External Torrent
Update Stats
Download Magnet


Poster


iMDB
Imdb Picture Title: Incredibles 2
Year: 2018
Runtime: 118 minutes
Votes: 11407
Rating: 8.6/10
Language: English
Country: USA
All Genres: Animation, Action, Adventure, Comedy, Family, Sci-Fi
Plot Outline: Bob Parr (Mr. Incredible) is left to care for Jack-Jack while Helen (Elastigirl) is out saving the world.


Tagline: It's been too long, dahlings.
Director: Brad Bird
Writing By: Brad Bird,
Produced By: Nicole Paradis Grindle,John Lasseter,John Walker,
Music: Michael Giacchino
Cast:
Craig T. Nelson as Bob Parr / Mr. Incredible
Holly Hunter as Helen Parr / Elastigirl
Sarah Vowell as Violet Parr
Huck Milner as Dashiell Parr (Dash)
Catherine Keener as Evelyn Deavor
Eli Fucile as Jack-Jack Parr
Bob Odenkirk as Winston Deavor
Samuel L. Jackson as Lucius Best / Frozone
Michael Bird as Tony Rydinger
Sophia Bush as Voyd
Trailers:
Official Trailer
Winter Games TV Spot
Official Teaser Trailer


Watch-Free-HD     Download

Details
Name:Incredibles.2.2018.720p.HDRip-.DD5.1.H264-[SM Team]
Description:
New Latest HD Movies Download Link :-  https://skymovieshd.org
***********************************


https://extraimage.net/images/...0ee73ac165d6281e.jpg

Video
ID : 1
Format : AVC
Format/Info : Advanced Video Codec
Format profile : [email protected]
Format settings : CABAC / 5 Ref Frames
Format settings, CABAC : Yes
Format settings, ReFrames : 5 frames
Codec ID : V_MPEG4/ISO/AVC
Duration : 1 h 57 min
Bit rate : 4 503 kb/s
Width : 1 920 pixels
Height : 804 pixels
Display aspect ratio : 2.40:1
Frame rate mode : Constant
Frame rate : 23.976 (23976/1000) FPS
Color space : YUV
Chroma subsampling : 4:2:0
Bit depth : 8 bits
Scan type : Progressive
Bits/(Pixel*Frame) : 0.122
Stream size : 3.71 GiB (92%)
Title : Incredibles.2.2018.1080p.WEB-DL.DD5.1.H264-FGT
Language : English
Default : Yes
Forced : No
Color range : Limited
Color primaries : BT.709
Transfer characteristics : BT.709
Matrix coefficients : BT.709

Audio
ID : 2
Format : AC-3
Format/Info : Audio Coding 3
Commercial name : Dolby Digital
Codec ID : A_AC3
Duration : 1 h 57 min
Bit rate mode : Constant
Bit rate : 384 kb/s
Channel(s) : 6 channels
Channel layout : L R C LFE Ls Rs
Sampling rate : 48.0 kHz
Frame rate : 31.250 FPS (1536 SPF)
Bit depth : 16 bits
Compression mode : Lossy
Stream size : 324 MiB (8%)
Title : Incredibles.2.2018.1080p.WEB-DL.DD5.1.H264-FGT
Language : English
Service kind : Complete Main
Default : Yes
Forced : No






New Latest HD Movies Download Link :-  https://skymovieshd.org
***********************************
Category:Movies > HDRips
Lang:English  English
Total Size:1.34 GB
Info Hash:01b0c650c354298a37057fcadd964a19cd38a876
Added By:Hdrex
Date Added:22-10-2018 20:48:31
Views:43
Hits:2

Download Torrent

Ratings:Not Yet Rated (Log in to rate it)


Tracker:
udp://tracker.coppersurfer.tk:6969/announce


File List: 


Comments

No comments still posted

Powered by 10 Hamsters v2-svn -|- Page Generated In 2.461831 secs.
-|- RSS FEED
Theme By: Nikkbu