[Login] or [Signup]
Login
Username:
Password:
[Signup]
[Recover Account]


Poll


You must be logged in to view polls



Torrent Details For " Yevadu 3 (2018 - South Hindi Dubbed) - 1CD - HDTVRip[Mp4 - AAC3(5.1Ch)]"

Yevadu 3 (2018 - South Hindi Dubbed) - 1CD - HDTVRip[Mp4 - AAC3(5.1Ch)]

Download this torrent | Magnet Download
Health:
Seeds: 12
Leechers: 32
Completed: 14 
Last Checked: 23-10-2018 17:33:34
External Torrent
Update Stats
Download Magnet


Poster


Watch-Free-HD     Download

Details
Name: Yevadu 3 (2018 - South Hindi Dubbed) - 1CD - HDTVRip[Mp4 - AAC3(5.1Ch)]
Description:
   Yevadu 3 (2018 - South Hindi Dubbed) -
1CD - HDTVRip[Mp4 - AAC3(5.1Ch)]  
 





General
Format                                   : MPEG-4
Format profile                           : Base Media
Codec ID                                 : isom (isom)
File size                                : 700 MiB
Duration                                 : 2 h 29 min

Video
ID                                       : 1
Format                                   : AVC
Format/Info                              : Advanced Video Codec
Format profile                           : [email protected]
Format settings                          : CABAC / 4 Ref Frames
Format settings, CABAC                   : Yes
Format settings, RefFrames               : 4 frames
Codec ID                                 : avc1
Codec ID/Info                            : Advanced Video Coding
Duration                                 : 2 h 29 min
Bit rate                                 : 525 kb/s
Maximum bit rate                         : 3 194 kb/s
Width                                    : 640 pixels
Height                                   : 272 pixels
Display aspect ratio                     : 2.35:1
Frame rate mode                          : Constant
Frame rate                               : 25.000 FPS
Color space                              : YUV
Chroma subsampling                       : 4:2:0
Bit depth                                : 8 bits
Scan type                                : Progressive
Bits/(Pixel*Frame)                       : 0.121
Stream size                              : 561 MiB (80%)

Audio
ID                                       : 2
Format                                   : AAC LC SBR
Commercial name                          : HE-AAC
Format settings                          : Explicit
Codec ID                                 : mp4a-40-2
Duration                                 : 2 h 29 min
Bit rate mode                            : Variable
Bit rate                                 : 128 kb/s
Maximum bit rate                         : 137 kb/s
Channel(s)                               : 6 channels
Channel layout                           : C L R Ls Rs LFE
Sampling rate                            : 48.0 kHz
Stream size                              : 136 MiB (19%)


 Thumbnail  




Category:Movies > Bollywood
Lang:Hindi
Total Size:700.49 MB
Info Hash:17615e3757ccc22444609ac89a56a6f8da87f0ab
Added By:CyberTron
Date Added:22-10-2018 18:40:12
Views:854
Hits:59

Download Torrent

Ratings:Not Yet Rated (Log in to rate it)

  


Tracker:
udp://tracker.trackerfix.com:80/announce


File List: 


Comments

No comments still posted

Powered by 10 Hamsters v2-svn -|- Page Generated In 0.508559 secs.
-|- RSS FEED
Theme By: Nikkbu