[Login] or [Signup]
Login
Username:
Password:
[Signup]
[Recover Account]


Poll


You must be logged in to view polls



Torrent Details For "Naa Peru Surya Na Illu India (2018) 720p - UnCut - HDRip - x264 - Proper Original Auds [Hindi +..."

Naa Peru Surya Na Illu India (2018) 720p - UnCut - HDRip - x264 - Proper Original Auds [Hindi +...

Download this torrent | Magnet Download
Health:
Seeds: 93
Leechers: 13
Completed: 1,588 
Last Checked: 03-11-2018 15:56:01
External Torrent
Update Stats
Download Magnet


Poster


iMDB
Imdb Picture Title: Naa Peru Surya Na Illu India
Year: 2018
Runtime: 163 minutes
Votes: 294
Rating: 7.0/10
Language: Telugu
Country: India
All Genres: Action
Plot Outline: Naa Peru Surya - Naa Illu India is a Telugu movie starring Allu Arjun and Anu Emmanuel in prominent roles. The movie also stars Arjun Sarja and R. Sarathkumar.


Director: Vakkantham Vamsi
Writing By: Vakkantham Vamsi,
Produced By: Jatin Dharna,Sirisha Lagadapati,Sridhar Lagadapati,Nagendra Babu,Bunny Vasu,
Music: Vishal Dadlani Shekhar Ravjiani
Cast:
Allu Arjun as Hero
Boman Irani as
Anu Emmanuel as Heroine
Sarath Kumar as
Nadia Moidu as
Arjun as
Rao Ramesh as
Pradeep Singh Rawat as
Rubina Naaz as Sakina
Vennela Kishore as
Trailers:
Naa Peru Surya Naa illu India First Impact


Watch-Free-HD     Download

Details
Name:Naa Peru Surya Na Illu India (2018) 720p - UnCut - HDRip - x264 - Proper Original Auds [Hindi +...
Description:
https://movcr.cc

Naa Peru Surya Na Illu India (2018) 720p - UnCut - HDRip - x264 - Proper Original Auds [Hindi + Telugu] - 1.4GB - MovCr Exclusive

First On Net


NO WATERMARKS & AUDIO TAGS





Video
ID : 1
Format : AVC
Format/Info : Advanced Video Codec
Format profile : [email protected]
Format settings : CABAC / 4 Ref Frames
Format settings, CABAC : Yes
Format settings, RefFrames : 4 frames
Codec ID : V_MPEG4/ISO/AVC
Duration : 2 h 36 min
Bit rate : 1 029 kb/s
Width : 1 280 pixels
Height : 544 pixels
Display aspect ratio : 2.35:1
Frame rate mode : Constant
Frame rate : 25.000 FPS
Color space : YUV
Chroma subsampling : 4:2:0
Bit depth : 8 bits
Scan type : Progressive
Bits/(Pixel*Frame) : 0.059
Stream size : 1.12 GiB (80%)
Writing library : x264 core 155 r2901 7d0ff22
Encoding settings : cabac=1 / ref=3 / deblock=1:0:0 / analyse=0x3:0x113 / me=hex / subme=7 / psy=1 / psy_rd=1.00:0.00 / mixed_ref=1 / me_range=16 / chroma_me=1 / trellis=1 / 8x8dct=1 / cqm=0 / deadzone=21,11 / fast_pskip=1 / chroma_qp_offset=-2 / threads=12 / lookahead_threads=2 / sliced_threads=0 / nr=0 / decimate=1 / interlaced=0 / bluray_compat=0 / constrained_intra=0 / bframes=3 / b_pyramid=2 / b_adapt=1 / b_bias=0 / direct=1 / weightb=1 / open_gop=0 / weightp=2 / keyint=250 / keyint_min=25 / scenecut=40 / intra_refresh=0 / rc_lookahead=40 / rc=abr / mbtree=1 / bitrate=1029 / ratetol=1.0 / qcomp=0.60 / qpmin=0 / qpmax=69 / qpstep=4 / vbv_maxrate=62500 / vbv_bufsize=78125 / nal_hrd=none / filler=0 / ip_ratio=1.40 / aq=1:1.00
Default : Yes
Forced : No
Color range : Limited
Color primaries : BT.709
Transfer characteristics : BT.709
Matrix coefficients : BT.709

Audio #1
ID : 2
Format : MPEG Audio
Format version : Version 1
Format profile : Layer 3
Format settings : Joint stereo
Codec ID : A_MPEG/L3
Codec ID/Hint : MP3
Duration : 2 h 36 min
Bit rate mode : Constant
Bit rate : 128 kb/s
Channel(s) : 2 channels
Sampling rate : 48.0 kHz
Frame rate : 41.667 FPS (1152 SPF)
Compression mode : Lossy
Delay relative to video : -21 ms
Stream size : 144 MiB (10%)
Language : Hindi
Default : Yes
Forced : No

Audio #2
ID : 3
Format : AAC LC
Format/Info : Advanced Audio Codec Low Complexity
Codec ID : A_AAC-2
Duration : 2 h 36 min
Bit rate : 126 kb/s
Channel(s) : 2 channels
Channel layout : L R
Sampling rate : 48.0 kHz
Frame rate : 46.875 FPS (1024 SPF)
Compression mode : Lossy
Delay relative to video : -21 ms
Stream size : 141 MiB (10%)
Language : Telugu
Default : No
Forced : No







Category:Movies > South Dub
Lang:Hindi
Total Size:1.40 GB
Info Hash:d5a57b5f43e89910b90064f9f831729429d89f31
Added By:MAZE
Date Added:13-10-2018 19:33:59
Views:3,034
Hits:451

Download Torrent

Ratings:Not Yet Rated (Log in to rate it)


Tracker:
http://retracker.mgts.by:80/announce

This Torrent also has backup trackers
URLSeedersLeechersCompleted
http://retracker.mgts.by:80/announce308682
http://retracker.telecom.by:80/announce000
http://t.nyaatracker.com:80/announce200
http://tracker.city9x.com:2710/announce70148
http://tracker.electro-torrent.pl:80/announce121237


File List: 


Comments

No comments still posted

Powered by 10 Hamsters v2-svn -|- Page Generated In 0.865510 secs.
-|- RSS FEED
Theme By: Nikkbu