[Login] or [Signup]
Login
Username:
Password:
[Signup]
[Recover Account]


Poll


You must be logged in to view polls



Torrent Details For "Guru (2018) Uncut 720p HDRip - x264 -[Dual Audio]-[Hindi (Original) + Telugu] - 1.1GB - MovCr E..."

Guru (2018) Uncut 720p HDRip - x264 -[Dual Audio]-[Hindi (Original) + Telugu] - 1.1GB - MovCr E...

Download this torrent | Magnet Download
Health:
Seeds: 533
Leechers: 30
Completed: 9,223 
Last Checked: 23-10-2018 07:22:37
External Torrent
Update Stats
Download Magnet


Poster


iMDB
Imdb Picture Title: Guru
Year: 2017
Runtime: 116 minutes
Votes: 311
Rating: 8.6/10
Language: Telugu
Country: India
All Genres: Action, Drama, Sport
Plot Outline: A curmudgeonly boxing coach sees the potential in a young woman; his belief in her changes her life.
Director: Sudha Kongara
Writing By: Harshavardhan,Sudha Kongara,Sudha Kongara,
Produced By: Chakravarthy Ramachandra,S. Sashikanth,
Music: Santhosh Narayanan
Plot:

A curmudgeonly boxing coach sees the potential in a young woman; his belief in her changes her life.

- Written by Kiran Mascarenhas
Cast:
Venkatesh Daggubati as Adi
Ritika Singh as Rameshwari (Ramudu)
Mumtaz Sorcar as Lakshmi (Lux)
Nassar as Punch Ponds
Zakir Hussain as Dev Khatri
Tanikella Bharani as Murali
Raghu Babu as Somulu
Bipin as Innocent
Anitha Chowdary as Rajyam


Watch-Free-HD     Download

Details
Name:Guru (2018) Uncut 720p HDRip - x264 -[Dual Audio]-[Hindi (Original) + Telugu] - 1.1GB - MovCr E...
Description:
Guru (2018) Uncut 720p HDRip - x264 -[Dual Audio]-[Hindi (Original) + Telugu] - 1.1GB - MovCr Exclusive [First On Net]


Exclusive - First On Net Release

Visit Our Site For More Exclusives .. https://movcr.cc

 https://movcr.cc/download-guru...vcr.html#box_comment


Guru (2018) 720p - UnCut - HDRip - x264 - - 1.1GB - MovCr
NO WATERMARKS & AUDIO TAGS








Video
ID : 1
Format : AVC
Format/Info : Advanced Video Codec
Format profile : [email protected]
Format settings : CABAC / 5 Ref Frames
Format settings, CABAC : Yes
Format settings, RefFrames : 5 frames
Codec ID : V_MPEG4/ISO/AVC
Duration : 1 h 48 min
Bit rate : 1 152 kb/s
Width : 1 280 pixels
Height : 544 pixels
Display aspect ratio : 2.35:1
Frame rate mode : Constant
Frame rate : 25.000 FPS
Color space : YUV
Chroma subsampling : 4:2:0
Bit depth : 8 bits
Scan type : Progressive
Bits/(Pixel*Frame) : 0.066
Stream size : 884 MiB (82%)
Title : www.MovCr.cc
Writing library : x264 core 148 r2643 5c65704
Encoding settings : cabac=1 / ref=5 / deblock=1:0:0 / analyse=0x3:0x113 / me=hex / subme=7 / psy=1 / psy_rd=1.00:0.00 / mixed_ref=1 / me_range=16 / chroma_me=1 / trellis=1 / 8x8dct=1 / cqm=0 / deadzone=21,11 / fast_pskip=1 / chroma_qp_offset=-2 / threads=8 / lookahead_threads=8 / sliced_threads=1 / slices=8 / nr=0 / decimate=1 / interlaced=0 / bluray_compat=0 / constrained_intra=0 / bframes=0 / weightp=2 / keyint=250 / keyint_min=25 / scenecut=40 / intra_refresh=0 / rc=abr / mbtree=0 / bitrate=1152 / ratetol=1.0 / qcomp=0.60 / qpmin=0 / qpmax=69 / qpstep=4 / ip_ratio=1.40 / aq=1:1.00
Language : English
Default : Yes
Forced : No

Audio #1
ID : 2
Format : MPEG Audio
Format version : Version 1
Format profile : Layer 3
Format settings : Joint stereo
Codec ID : A_MPEG/L3
Codec ID/Hint : MP3
Duration : 1 h 48 min
Bit rate mode : Constant
Bit rate : 128 kb/s
Channel(s) : 2 channels
Sampling rate : 48.0 kHz
Frame rate : 41.667 FPS (1152 SPF)
Compression mode : Lossy
Stream size : 99.2 MiB (9%)
Title : www.MovCr.cc
Language : Hindi
Default : Yes
Forced : No

Audio #2
ID : 3
Format : AAC LC
Format/Info : Advanced Audio Codec Low Complexity
Codec ID : A_AAC-2
Duration : 1 h 48 min
Bit rate : 128 kb/s
Channel(s) : 2 channels
Channel layout : L R
Sampling rate : 48.0 kHz
Frame rate : 46.875 FPS (1024 SPF)
Compression mode : Lossy
Stream size : 99.1 MiB (9%)
Title : www.MovCr.cc
Language : Telugu
Default : No
Forced : No








Category:Movies > South Dub
Lang:Hindi
Total Size:1.06 GB
Info Hash:40624a73b1845b17863584d2bd02b39c7085ae6b
Added By:MAZE
Date Added:12-10-2018 19:52:27
Views:2,915
Hits:364

Download Torrent

Ratings:Not Yet Rated (Log in to rate it)


Tracker:
http://retracker.mgts.by:80/announce

This Torrent also has backup trackers
URLSeedersLeechersCompleted
http://retracker.mgts.by:80/announce3252,025
http://retracker.telecom.by:80/announce000
http://t.nyaatracker.com:80/announce1210
http://tracker.city9x.com:2710/announce143370
http://tracker.electro-torrent.pl:80/announce586538


File List: 


Comments

No comments still posted

Powered by 10 Hamsters v2-svn -|- Page Generated In 0.792038 secs.
-|- RSS FEED
Theme By: Nikkbu