[Login] or [Signup]
Login
Username:
Password:
[Signup]
[Recover Account]


Poll


You must be logged in to view polls



Torrent Details For "The House Next Door (2017) Hindi Original 720p HDRip x264 AC3 5.1 1.4GB ESubs"

The House Next Door (2017) Hindi Original 720p HDRip x264 AC3 5.1 1.4GB ESubs

Download this torrent | Magnet Download
Health:
Seeds: 21
Leechers: 13
Completed: 697 
Last Checked: 27-02-2018 17:05:21
External Torrent
Update Stats
Download Magnet


Poster


iMDB
Imdb Picture Title: The House Next Door
Year: 2017
Runtime: 137 minutes
Votes: 246
Rating: 7.7/10
Language: Telugu, Tamil, Hindi
Country: India
All Genres: Horror
Plot Outline: A happy couple faces horror when a family moves into the neighborhood.
Director: Milind Rau
Writing By: Rahul Ramchandani,Milind Rau,Siddharth,
Produced By: Siddharth,
Music: Girishh Gopalakrishnan
Cast:
Siddharth as
Andrea Jeremiah as
Atul Kulkarni as
Khushi Hajare as Sarah
Anisha Victor as Jenny
Manav Vij as
Trailers:
Official 'The House Next Door' Trailer (Hindi)


Watch-Free-HD     Download

Details
Name:The House Next Door (2017) Hindi Original 720p HDRip x264 AC3 5.1 1.4GB ESubs
Description:
The House Next Door (2017) Hindi Original 720p HDRip x264 AC3 5.1 1.4GB ESubs

 

Format :                                      Matroska
Format version :                              Version 4 / Version 2
File size :                                   1.42 GiB
Duration :                                    2 h 14 min
Overall bit rate :                            1 434 kb/s

Video

ID :                                          1
Format :                                      AVC
Format/Info :                                 Advanced Video Codec
Format profile :                              [email protected]
Format settings :                             CABAC / 4 Ref Frames
Format settings, CABAC :                      Yes
Format settings, ReFrames :                   4 frames
Codec ID :                                    V_MPEG4/ISO/AVC
Duration :                                    2 h 14 min
Bit rate :                                    1 213 kb/s
Width :                                       1 280 pixels
Height :                                      444 pixels
Display aspect ratio :                        2.40:1
Original display aspect rat :                 2.40:1
Frame rate mode :                             Constant
Frame rate :                                  24.000 FPS
Color space :                                 YUV
Chroma subsampling :                          4:2:0
Bit depth :                                   8 bits
Scan type :                                   Progressive
Bits/(Pixel*Frame) :                          0.089
Stream size :                                 1.14 GiB (85%)
Writing library :                             x264 core 148 r2708 86b7198

Audio

ID :                                          2
Format :                                      E-AC-3
Format/Info :                                 Enhanced Audio Coding 3
Codec ID :                                    A_EAC3
Duration :                                    2 h 14 min
Bit rate mode :                               Constant
Bit rate :                                    192 kb/s
Channel(s) :                                  6 channels
Channel positions :                           Front: L C R, Side: L R, LFE
Sampling rate :                               48.0 kHz
Frame rate :                                  187.500 FPS (256 SPF)
Compression mode :                            Lossy
Stream size :                                 185 MiB (13%)
Title :                                       Surround
Service kind :                                Complete Main
Default :                                     Yes
Forced :                                      No

               
Category:Movies > Bollywood
Lang:Hindi
Total Size:1.42 GB
Info Hash:9b97ae01fcb4d84a254beba7519b37aeef2e000a
Added By:Shrawankk
Date Added:10-01-2018 04:58:56
Views:8,227
Hits:1,444

Download Torrent

Ratings:Not Yet Rated (Log in to rate it)


Tracker:
udp://tracker.openbittorrent.com:80/announce


File List: 


Comments

No comments still posted

Powered by 10 Hamsters v2-svn -|- Page Generated In 1.145696 secs.
-|- RSS FEED
Theme By: Nikkbu