[Login] or [Signup]
Login
Username:
Password:
[Signup]
[Recover Account]


Poll


You must be logged in to view polls



Torrent Details For "Mrugashira (2017) HDRip x264 HinDi Dubbed AAC.MP4"

Mrugashira (2017) HDRip x264 HinDi Dubbed AAC.MP4

Download this torrent | Magnet Download
Health:
Seeds: 2,420
Leechers: 2,588
Completed: 2,097 
Last Checked: 08-12-2017 14:15:19
External Torrent
Update Stats
Download Magnet


Poster
No poster


Watch-Free-HD     Download

Details
Name:Mrugashira (2017) HDRip x264 HinDi Dubbed AAC.MP4
Description:
 

Mrugashira (2017) HDRip x264 HinDi Dubbed AAC


Video
ID                          : 1
Format                      : AVC
Format/Info                 : Advanced Video Codec
Format profile              : [email protected]
Format settings, CABAC      : Yes
Format settings, ReFrames   : 3 frames
Codec ID                    : avc1
Codec ID/Info               : Advanced Video Coding
Duration                    : 1h 42mn
Bit rate                    : 745 Kbps
Width                       : 854 pixels
Height                      : 480 pixels
Display aspect ratio        : 16:9
Frame rate mode             : Constant
Frame rate                  : 25.000 fps
Color space                 : YUV
Chroma subsampling          : 4:2:0
Bit depth                   : 8 bits
Scan type                   : Progressive
Bits/(Pixel*Frame)          : 0.073
Stream size                 : 544 MiB (85%)
Encoded date                : UTC 2017-11-07 08:54:32
Tagged date                 : UTC 2017-11-07 08:54:32
Color range                 : Limited
Color primaries             : BT.709
Transfer characteristics    : BT.709
Matrix coefficients         : BT.709

Audio
ID                          : 2
Format                      : AAC
Format/Info                 : Advanced Audio Codec
Format profile              : LC
Codec ID                    : 40
Duration                    : 1h 42mn
Bit rate mode               : Variable
Bit rate                    : 126 Kbps
Channel(s)                  : 2 channels
Channel positions           : Front: L R
Sampling rate               : 44.1 KHz
Compression mode            : Lossy
Stream size                 : 91.7 MiB (14%)
Encoded date                : UTC 2017-11-07 08:26:21
Tagged date                 : UTC 2017-11-07 08:26:21

 

     
     
 
Category:Movies > HDRips
Lang:Hindi
Total Size:638.36 MB
Info Hash:9c768914982ab334cf9a7d579767604e96c4f08f
Added By:786zx
Date Added:08-12-2017 02:21:55
Views:270
Hits:26

Download Torrent

Ratings:Not Yet Rated (Log in to rate it)


Tracker:
http://ipv4.tracker.harry.lu/announce

This Torrent also has backup trackers
URLSeedersLeechersCompleted
http://ipv4.tracker.harry.lu/announce215270534
http://tracker.electro-torrent.pl/announce2172140
http://open.kickasstracker.com/announce2602680
http://alpha.torrenttracker.nl:443/announce212200173
https://open.kickasstracker.com:443/announce2602680
http://163.172.180.68/announce215270534
http://82.209.230.66/announce010
http://retracker.mgts.by:80/announce010
http://pt.lax.mx:80/announce000
http://ipv4.tracker.harry.lu:80/announce214269534
http://tracker.electro-torrent.pl:80/announce2182130
http://tracker.torrentyorg.pl:80/announce2152120
http://open.kickasstracker.com:80/announce2602690
http://t.nyaatracker.com/announce010


File List: 


Comments

No comments still posted

Powered by 10 Hamsters v2-svn -|- Page Generated In 0.673563 secs.
-|- RSS Feed -|- Feed Info
Theme By: Nikkbu