[Login] or [Signup]
Login
Username:
Password:
[Signup]
[Recover Account]


Poll


You must be logged in to view polls



Torrent Details For "Safe House 2012 BDrip Xvid-eXceSs (BG SUB)"

Safe House 2012 BDrip Xvid-eXceSs (BG SUB)

Download this torrent | Magnet Download
Health:
Seeds: 31
Leechers: 98
Completed: 587 
Last Checked: 07-12-2017 21:34:39
External Torrent
Update Stats
Download Magnet


Poster


iMDB
Imdb Picture Original Title: Safe House
Title: Sécurité rapprochée
Year: 2012
Runtime: 115 minutes
Votes: 178996
Rating: 6.8/10
Language: English, Afrikaans
Country: South Africa, Japan, USA
All Genres: Action, Crime, Mystery, Thriller
Plot Outline: A young CIA agent is tasked with looking after a fugitive in a safe house. But when the safe house is attacked, he finds himself on the run with his charge.
Tagline: No One Is Safe
Director: Daniel Espinosa
Writing By: David Guggenheim,
Produced By: Scott Aversano,John Bernard,Marc D. Evans,Alexa Faigen,Genevieve Hofmeyr,Trevor Macy,Adam Merims,Scott Stuber,Denzel Washington,
Music: Ramin Djawadi
Cast:
Denzel Washington as Tobin Frost
Ryan Reynolds as Matt Weston
Vera Farmiga as Catherine Linklater
Brendan Gleeson as David Barlow
Sam Shepard as Harlan Whitford
Rubén Blades as Carlos Villar
Nora Arnezeder as Ana Moreau
Robert Patrick as Daniel Kiefer
Liam Cunningham as Alec Wade
Joel Kinnaman as Keller
Trailers:
No. 1


Watch-Free-HD     Download

Details
Name:Safe House 2012 BDrip Xvid-eXceSs (BG SUB)
Description:




 

Genre: Action, Crime, Mystery
Country: USA, South Africa
Year: 2012
Subtitles: in torrent
Runtime: 115 min.
Director: Daniel Espinosa
Cast: Denzel Washington, Ryan Reynolds, Vera Farmiga, Brendan Gleeson, Sam Shepard, Nora Arnezeder, Robert Patrick, Liam Cunningham, Joel Kinnaman, Fares Fares, Jenna Dover, Stephen Rider, Daniel Fox, Tracie Thoms and others
.: Plot :. A young CIA agent is tasked with looking after a fugitive in a safe house. But when the safe house is attacked, he finds himself on the run with his charge.

Quote:

Format                           : AVI
Format/Info                      : Audio Video Interleave
File size                        : 1.60 GiB
Duration                         : 1h 54mn
Overall bit rate                 : 1 990 Kbps

Video
ID                               : 0
Format                           : MPEG-4 Visual
Format profile                   : Advanced [email protected]
Format settings, BVOP            : 1
Format settings, QPel            : No
Format settings, GMC             : No warppoints
Format settings, Matrix          : Default (H.263)
Codec ID                         : XVID
Codec ID/Hint                    : XviD
Duration                         : 1h 54mn
Bit rate                         : 1 597 Kbps
Width                            : 640 pixels
Height                           : 264 pixels
Display aspect ratio             : 2.40:1
Frame rate                       : 23.976 fps
Color space                      : YUV
Chroma subsampling               : 4:2:0
Bit depth                        : 8 bits
Scan type                        : Progressive
Compression mode                 : Lossy
Bits/(Pixel*Frame)               : 0.394
Stream size                      : 1.28 GiB (80%)
Writing library                  : XviD 1.2.1 (UTC 2008-12-04)

Audio
ID                               : 1
Format                           : AC-3
Format/Info                      : Audio Coding 3
Mode extension                   : CM (complete main)
Codec ID                         : 2000
Duration                         : 1h 54mn
Bit rate mode                    : Constant
Bit rate                         : 384 Kbps
Channel(s)                       : 6 channels
Channel positions                : Front: L C R, Side: L R, LFE
Sampling rate                    : 48.0 KHz
Bit depth                        : 16 bits
Compression mode                 : Lossy
Stream size                      : 316 MiB (19%)
Alignment                        : Aligned on interleaves
Interleave, duration             : 42 ms (1.00 video frame)
Interleave, preload duration     : 512 ms











Category:Movies > DVDRips
Lang:English  English
Total Size:1.63 GB
Info Hash:19842d4b4c6ad7f57332f7be1cd81b05f6d122ea
Added By:RIAS
Date Added:07-12-2017 17:18:45
Views:49
Hits:9

Download Torrent

Ratings:Not Yet Rated (Log in to rate it)

  


Tracker:
http://tracker.opentrackr.org:1337/announce

This Torrent also has backup trackers
URLSeedersLeechersCompleted
http://tracker.opentrackr.org:1337/announce6113
http://p2p-torrent.ru.tf/announce.php?pid=b25d1a88159deed69a8cdfa89d78eef4319568


File List: 


Comments

No comments still posted

Powered by 10 Hamsters v2-svn -|- Page Generated In 4.558070 secs.
-|- RSS Feed -|- Feed Info
Theme By: Nikkbu